Archive for the ‘Uncategorized’ Category

 

Watch Free Movies

You can watch and download free movies and videos on this blog. However, you can also find it yourself. You can google or search video on youtube. We, greatbigmovies, provide fresh free movies every day. We also have sexy and uncensored celebrity videos.

Please browse our category. You can also find it on youtube for more sources. Enjoy.

Continue watching your selected video

Posted by admin on January 24th, 2011 62 Comments

The Dark Knight (2008)

SCREEN




DOWNLOAD

HOTFILE

http://hotfile.com/dl/25825156/9e7d12d/The.D.K._2008_.x264.HD.part1.rar.html
http://hotfile.com/dl/25825248/14dc366/The.D.K._2008_.x264.HD.part2.rar.html
http://hotfile.com/dl/25825298/3325497/The.D.K._2008_.x264.HD.part3.rar.html
http://hotfile.com/dl/25825379/49993c9/The.D.K._2008_.x264.HD.part4.rar.html
http://hotfile.com/dl/25825433/3b6b981/The.D.K._2008_.x264.HD.part5.rar.html
http://hotfile.com/dl/25825449/78cdf7b/The.D.K._2008_.x264.HD.part6.rar.html

Posted by admin on January 29th, 2010 Comments Off

The Matrix (1999)

INFO

Format : AVI
Format/Info : Audio Video Interleave
File size : 830 MiB
Duration : 2h 16mn
Overall bit rate : 851 Kbps
Writing library : VirtualDub build 10805/release

Video
Format : MPEG-4 Visual
Codec ID : DIV3
Codec ID/Hint : DivX 3 Low
Duration : 2h 16mn
Bit rate : 750 Kbps
Width : 512 pixels
Height : 272 pixels
Display aspect ratio : 1.882
Frame rate : 23.976 fps
Resolution : 24 bits
Bits/(Pixel*Frame) : 0.225
Stream size : 731 MiB (88%)

Audio
Format : MPEG Audio
Format version : Version 1
Format profile : Layer 3
Codec ID : 55
Codec ID/Hint : MP3
Duration : 2h 16mn
Bit rate mode : Constant
Bit rate : 96.0 Kbps
Channel(s) : 2 channels
Sampling rate : 48.0 KHz
Resolution : 16 bits
Stream size : 93.6 MiB (11%)
Alignment : Split accross interleaves
Interleave, duration : 500 ms (11.99 video frames)
Interleave, preload duration : 500 ms

SCREEN








DOWNLOAD

RAPIDSHARE

http://rapidshare.com/files/341190330/The.Matrix-1999...mayoo007.avi.001

http://rapidshare.com/files/341198229/The.Matrix-1999...mayoo007.avi.002

http://rapidshare.com/files/341209859/The.Matrix-1999...mayoo007.avi.003

http://rapidshare.com/files/341223849/The.Matrix-1999...mayoo007.avi.004

http://rapidshare.com/files/341236991/The.Matrix-1999...mayoo007.avi.005

http://rapidshare.com/files/341252506/The.Matrix-1999...mayoo007.avi.006

http://rapidshare.com/files/341268851/The.Matrix-1999...mayoo007.avi.007

http://rapidshare.com/files/341309471/The.Matrix-1999...mayoo007.avi.008

http://rapidshare.com/files/341311565/The.Matrix-1999...mayoo007.avi.009

Posted by admin on January 29th, 2010 Comments Off

The Matrix: Reloaded (2003)

INFO

Format : AVI

Format/Info : Audio Video Interleave
File size : 700 MiB
Duration : 2h 18mn
Overall bit rate : 708 Kbps
Writing application : VirtualDubMod 1.5.4.1 (build 2178/release)
Writing library : VirtualDubMod build 2178/release

Video
Format : MPEG-4 Visual
Format profile : Streaming Video@L1
Format settings, BVOP : Yes
Format settings, QPel : No
Format settings, GMC : No warppoints
Format settings, Matrix : Custom
Codec ID : XVID
Codec ID/Hint : XviD
Duration : 2h 18mn
Bit rate : 578 Kbps
Width : 560 pixels
Height : 240 pixels
Display aspect ratio : 2.35
Frame rate : 23.976 fps
Resolution : 24 bits
Colorimetry : 4:2:0
Scan type : Progressive
Bits/(Pixel*Frame) : 0.179
Stream size : 572 MiB (82%)
Writing library : XviD 1.1.0 (UTC 2005-11-22)

Audio
Format : MPEG Audio
Format version : Version 1
Format profile : Layer 3
Codec ID : 55
Codec ID/Hint : MP3
Duration : 2h 18mn
Bit rate mode : Variable
Bit rate : 117 Kbps
Nominal bit rate : 128 Kbps
Channel(s) : 2 channels
Sampling rate : 48.0 KHz
Resolution : 16 bits
Video delay : 48ms
Stream size : 116 MiB (17%)
Alignment : Split accross interleaves
Interleave, duration : 24 ms (0.58 video frame)
Interleave, preload duration : 301 ms
Writing library : LAME3.97b
Encoding settings : -m j -V 4 -q 2 -lowpass 17 –abr 128
Language : English

SCREEN

DOWNLOAD

RAPIDSHARE

http://rapidshare.com/files/341318971/The_Matrix_Reloaded_2003_...mayoo007.avi.001

http://rapidshare.com/files/341326830/The_Matrix_Reloaded_2003_...mayoo007.avi.002

http://rapidshare.com/files/341334451/The_Matrix_Reloaded_2003_...mayoo007.avi.003

http://rapidshare.com/files/341343451/The_Matrix_Reloaded_2003_...mayoo007.avi.004

http://rapidshare.com/files/341353078/The_Matrix_Reloaded_2003_...mayoo007.avi.005

http://rapidshare.com/files/341363057/The_Matrix_Reloaded_2003_...mayoo007.avi.006

http://rapidshare.com/files/341372541/The_Matrix_Reloaded_2003_...mayoo007.avi.007

http://rapidshare.com/files/341372615/The_Matrix_Reloaded_2003_...mayoo007.avi.008

Posted by admin on January 29th, 2010 Comments Off

The Matrix: Revolutions (2004)

INFO

Format : AVI
Format/Info : Audio Video Interleave
File size : 698 MiB
Duration : 2h 9mn
Overall bit rate : 756 Kbps
Writing application : FairUse Wizard – http://fairusewizard.com
Writing library : The best and REALLY easy backup tool

Video
Format : MPEG-4 Visual
Format profile : Streaming Video@L1
Format settings, BVOP : Yes
Format settings, QPel : No
Format settings, GMC : No warppoints
Format settings, Matrix : Default (H.263)
Muxing mode : Packed bitstream
Codec ID : XVID
Codec ID/Hint : XviD
Duration : 2h 9mn
Bit rate : 618 Kbps
Width : 544 pixels
Height : 224 pixels
Display aspect ratio : 2.429
Frame rate : 23.976 fps
Resolution : 24 bits
Colorimetry : 4:2:0
Scan type : Progressive
Bits/(Pixel*Frame) : 0.212
Stream size : 572 MiB (82%)
Writing library : XviD 1.1.0 (UTC 2005-11-22)

Audio
Format : MPEG Audio
Format version : Version 1
Format profile : Layer 3
Codec ID : 55
Codec ID/Hint : MP3
Duration : 2h 9mn
Bit rate mode : Constant
Bit rate : 128 Kbps
Channel(s) : 2 channels
Sampling rate : 48.0 KHz
Resolution : 16 bits
Stream size : 118 MiB (17%)
Alignment : Aligned on interleaves
Interleave, duration : 42 ms (1.00 video frame)
Interleave, preload duration : 504 ms
Writing library : LAME3.97b
Encoding settings : -m j -V 4 -q 2 -lowpass 17 -b 128

SCREEN

DOWNLOAD

RAPIDSHARE

http://rapidshare.com/files/341382943/The_Matrix_Revolutions_2004_...mayoo007.avi.001

http://rapidshare.com/files/341390678/The_Matrix_Revolutions_2004_...mayoo007.avi.002

http://rapidshare.com/files/341399417/The_Matrix_Revolutions_2004_...mayoo007.avi.003

http://rapidshare.com/files/341415764/The_Matrix_Revolutions_2004_...mayoo007.avi.004

http://rapidshare.com/files/341712153/The_Matrix_Revolutions_2004_...mayoo007.avi.005

http://rapidshare.com/files/341764208/The_Matrix_Revolutions_2004_...mayoo007.avi.006

http://rapidshare.com/files/341779514/The_Matrix_Revolutions_2004_...mayoo007.avi.007 

Posted by admin on January 29th, 2010 Comments Off